#TITLE:Badger Badger Badger Badger Badger;
#SUBTITLE:(Badger Badger Badger Badger Badger Badger);
#ARTIST:Mushroom Mushroom;
#TITLETRANSLIT:;
#SUBTITLETRANSLIT:;
#ARTISTTRANSLIT:;
#CREDIT:;
#BANNER:badger.png;
#BACKGROUND:badger-bg.png;
#LYRICSPATH:;
#CDTITLE:;
#MUSIC:badger.mp3;
#OFFSET:-0.082;
#SAMPLESTART:0.820;
#SAMPLELENGTH:28.000;
#SELECTABLE:YES;
#BPMS:0.000=80.125;
#STOPS:;
#BGCHANGES:;
// cache tags:
#FIRSTBEAT:0.000;
#LASTBEAT:38.000;
#SONGFILENAME:Songs/Music V.I.P ^_^/Badger/badger.sm;
#HASMUSIC:1;
#HASBANNER:1;
#MUSICLENGTH:29.570;
// end cache tags

//---------------dance-single - ----------------
#NOTES:
     dance-single:
     :
     Hard:
     10:
     1.000,1.000,1.000,1.000,0.795,114.000,112.000,226.000,0.000,0.000:  // measure 1
2020
3030
2020
3030
2002
3003
2002
3003
2200
3300
2200
3300
2002
3003
2002
3003
0022
0033
0022
0033
2002
3003
2002
3003
2200
3300
2200
3300
2002
3003
2002
3003
,  // measure 2
0220
0330
0220
0330
2020
3030
2020
3030
0220
0330
0220
0330
0022
0033
0022
0033
0022
0000
0033
0000
2200
0000
3300
0000
2020
0000
3030
0000
0202
0000
0303
0000
,  // measure 3
0000
0000
0000
0000
0220
0330
0220
0330
2002
3003
2002
3003
0022
0033
0022
0033
2200
3300
2200
3300
0220
0330
0220
0330
0022
0033
0022
0033
2002
3003
2002
3003
,  // measure 4
2200
3300
2200
3300
0202
0303
0202
0303
0022
0033
0022
0033
2020
3030
2020
3030
2002
0000
3003
0000
0220
0000
0330
0000
2002
0000
3003
0000
0220
0000
0330
0000
,  // measure 5
0000
0000
0000
0000
0220
0330
0220
0330
2002
3003
2002
3003
0022
0033
0022
0033
2200
3300
2200
3300
2020
3030
2020
3030
0202
0303
0202
0303
2002
3003
2002
3003
,  // measure 6
2200
3300
2200
3300
2002
3003
2002
3003
0202
0303
0202
0303
2002
3003
2002
3003
0000
0000
0000
0000
2200
3300
0202
0303
2200
0000
3300
0000
2200
0000
3300
0000
,  // measure 7
0000
0000
0000
0000
2002
3003
2002
3003
0220
0330
0220
0330
2020
3030
2020
3030
0202
0303
0202
0303
0022
0033
0022
0033
2200
3300
2200
3300
2002
3003
2002
3003
,  // measure 8
0220
0330
0220
0330
2020
3030
2020
3030
0202
0303
0202
0303
0220
0330
0220
0330
2002
0000
3003
0000
0220
0000
0330
0000
2020
0000
3030
0000
0202
0000
0303
0000
,  // measure 9
0000
0000
2002
0000
0000
3000
0020
0030
0200
0000
0000
0303
0000
0000
2002
3003
,  // measure 10
0220
0000
0000
0000
0000
0000
0330
0000
2002
0000
3003
0000
0220
0330
2002
0000
3003
0000
0000
0000
0000
0000
0000
0000
0000
0000
0000
0000
0000
0000
0000
0000
;
